Allergy & Asthma Center Islamabad

Skin Care By Shahid Abbas
BOOK APPOINTMENT

International ALLERGY Education Resources

Search
Close this search box.

As Bestas The Beasts 1080p 720p Clean Audio Free Movie Download Torrent

As Bestas The Beasts 1080p

Share Ratio

Seeds 40 Peers 15

As Bestas The Beasts 1080p Trusted uploader

A middle-aged French couple moves to a local village in search of closeness to nature, where its presence fuels the two inhabitants to utter hostility and shocking violence.

Format: Matroska

Format Version: Version 4 / Version 2

File size: GiB

Duration: 2h 17m

Total transfer rate: 5093 Kbps

Encoding date: UTC 2022-11-15 19:20:24

Write application: mkvmerge (‘To drown in you’) 64-bit

Script library: libebml + libmatroska

video

ID: 1

Format: AVC

Format/Info: Advanced Video Codec

Format profile: fig

Format setting, CABAC: Yes

Format setting, reframes: 2 frames

Codec ID: V_MPEG4/ISO/AVC

Duration: 2h 17m

Bit rate: 4452 Kbps

Width: 1916 pixels

Height: 800 pixels

Screen ratio: :1

Frame Rate Mode: Constant

Frame rate: frames per second

Color space: IUV

Color subsampling: 4:2:0

Bit depth: 8 bits

Scan type: Progressive

Bits/(pixel*frame):

Stream size: GiB (85%)

Write collection: k264 core 142

Language: Spanish

Default: Yes

Forced: no

Main color:

Transmission Features:

Matrix coefficients:

sound

ID: 2

Format: AC-3

Format/Info: Audio encoding 3

Expansion Mode: CM (Full Master)

Format settings, end: large

Codec ID: A_AC3

Duration: 2h 17m

Bitrate Mode: Constant

Transmission speed: 640 Kbps

Channel(s): 6 channels

Channel Locations: Front: L C R, Side: L R, LFE

Sampling frequency: KHz

Bit depth: 16 bits

Compression mode: lossy

Stream size: 632 MiB (13%)

Language: Spanish

Default: Yes

Forced: no

10 2 Torrent rating

Download torrent client Download uTorrent

Open chat